<?xml version="1.0" standalone="no"?>
<!DOCTYPE svg PUBLIC "-//W3C//DTD SVG 1.1//EN" "http://www.w3.org/Graphics/SVG/1.1/DTD/svg11.dtd" >
<svg>
<metadata>
Created by FontForge 20090622 at Fri Oct 11 06:41:45 2019
 By deploy user
Copyright &#194;&#169; 2013 by Mattox Shuler. All rights reserved.
</metadata>
<defs>
<font id="GinW00-Regular" horiz-adv-x="523" >
  <font-face 
    font-family="GinW00-Regular"
    font-weight="400"
    font-stretch="normal"
    units-per-em="1000"
    panose-1="1 0 0 0 0 0 0 0 0 0"
    ascent="800"
    descent="-200"
    x-height="760"
    cap-height="760"
    bbox="-20 -163 1573 1075"
    underline-thickness="50"
    underline-position="-125"
    unicode-range="U+0020-U+2260"
  />
<missing-glyph horiz-adv-x="500" 
d="M0 700h500v-700h-500v700zM420 650h-340l170 -255zM450 95v510l-170 -255zM420 50l-170 255l-170 -255h340zM50 95l170 255l-170 255v-510z" />
    <glyph glyph-name=".notdef" horiz-adv-x="500" 
d="M0 700h500v-700h-500v700zM420 650h-340l170 -255zM450 95v510l-170 -255zM420 50l-170 255l-170 -255h340zM50 95l170 255l-170 255v-510z" />
    <glyph glyph-name=".null" horiz-adv-x="0" 
 />
    <glyph glyph-name="nonmarkingreturn" horiz-adv-x="333" 
 />
    <glyph glyph-name="space" unicode=" " horiz-adv-x="240" 
 />
    <glyph glyph-name="exclam" unicode="!" horiz-adv-x="264" 
d="M195 711v-277l-19 -225h-88l-19 225v277l-16 49h158zM176 176l44 -44v-88l-44 -44h-88l-44 44v88l44 44h88z" />
    <glyph glyph-name="quotedbl" unicode="&#x22;" horiz-adv-x="426" 
d="M155 804l29 -29l-52 -275h-44l-51 275l30 29h88zM360 804l30 -29l-52 -275h-45l-50 275l29 29h88z" />
    <glyph glyph-name="numbersign" unicode="#" horiz-adv-x="802" 
d="M629 444l-22 -127h95l49 16v-159l-49 16h-117l-27 -155l12 -35h-159l27 79l19 111h-157l-27 -155l12 -35h-159l27 79l19 111h-72l-49 -16v159l49 -16h93l22 127h-115l-49 -16v159l49 -16h137l26 155l-10 34h157l-24 -78l-19 -111h155l26 155l-10 34h157l-24 -78l-19 -111
h50l49 16v-159l-49 16h-73zM500 444h-156l-22 -127h156z" />
    <glyph glyph-name="dollar" unicode="$" horiz-adv-x="486" 
d="M305 568v50l-14 14h-98l-14 -14v-159l14 -15h177l64 -62v-318l-64 -64h-50l-15 -15v-30l16 -48h-158l16 48v30l-15 15h-48l-64 64v128l-15 48h158l-16 -48v-49l14 -15h98l14 15v160l-14 14h-175l-64 65v314l64 64h48l15 15v31l-16 49h158l-16 -49v-31l15 -15h50l64 -64
v-128l16 -48h-159z" />
    <glyph glyph-name="percent" unicode="%" horiz-adv-x="595" 
d="M229 706v-106l-54 -56h-104l-56 56v106l56 54h104zM303 35l10 -35h-157l24 81l113 645l-12 34h159l-25 -80zM88 716l-29 -29v-69l29 -30h68l29 30v69l-29 29h-68zM580 161v-105l-54 -56h-104l-56 56v105l56 55h104zM439 172l-29 -29v-70l29 -29h68l29 29v70l-29 29h-68z
" />
    <glyph glyph-name="ampersand" unicode="&#x26;" horiz-adv-x="495" 
d="M480 460v-159l-48 16h-16v-253l-62 -64h-254l-63 64v253l63 65l-63 62v252l63 64h254l62 -64v-128l18 -48h-159l16 48v50l-15 14h-99l-14 -14v-159l14 -15h255zM276 317h-99l-14 -14v-160l14 -15h99l15 15v160z" />
    <glyph glyph-name="quotesingle" unicode="'" horiz-adv-x="220" 
d="M155 804l29 -29l-52 -275h-44l-51 275l30 29h88z" />
    <glyph glyph-name="parenleft" unicode="(" horiz-adv-x="305" 
d="M44 -64v887l63 64h176v-127h-98l-14 -14v-731l14 -15h98v-128h-176z" />
    <glyph glyph-name="parenright" unicode=")" horiz-adv-x="305" 
d="M199 -128h-176v128h97l15 15v731l-15 14h-97v127h176l62 -64v-887z" />
    <glyph glyph-name="asterisk" unicode="*" horiz-adv-x="448" 
d="M375 446l-79 -58l-72 142l-73 -142l-76 58l112 112l-158 26l30 90l142 -71l-25 157h97l-26 -157l143 71l29 -91l-156 -25z" />
    <glyph glyph-name="plus" unicode="+" horiz-adv-x="528" 
d="M455 460v-159l-49 16h-79v-77l16 -49h-158l16 49v77h-78l-50 -16v159l50 -16h78v78l-16 50h158l-16 -50v-78h79z" />
    <glyph glyph-name="comma" unicode="," horiz-adv-x="249" 
d="M169 176l44 -44v-163l-53 -53l-79 -44v47l52 53v17l-10 11h-42l-44 44v88l44 44h88z" />
    <glyph glyph-name="hyphen" unicode="-" horiz-adv-x="470" 
d="M426 300l-50 16h-283l-49 -16v159l49 -16h283l50 16v-159z" />
    <glyph glyph-name="period" unicode="." horiz-adv-x="249" 
d="M169 176l44 -44v-88l-44 -44h-88l-44 44v88l44 44h88z" />
    <glyph glyph-name="slash" unicode="/" horiz-adv-x="314" 
d="M161 35l12 -35h-158l26 81l111 645l-11 34h158l-24 -80z" />
    <glyph glyph-name="zero" unicode="0" horiz-adv-x="474" 
d="M427 698v-635l-63 -63h-253l-64 63v635l64 62h253zM284 632h-96l-15 -14v-477l15 -14h96l15 14v477z" />
    <glyph glyph-name="one" unicode="1" horiz-adv-x="272" 
d="M228 0h-159l16 49v538l-14 15h-48l46 158h144v-711z" />
    <glyph glyph-name="two" unicode="2" horiz-adv-x="492" 
d="M436 192v-192h-380v380l63 63h176l14 15v160l-14 14h-99l-15 -14v-50l18 -48h-159l16 48v128l63 64h253l64 -64v-316l-64 -64h-176l-15 -15v-158l15 -15h99l14 15v49l-16 48h159z" />
    <glyph glyph-name="three" unicode="3" horiz-adv-x="466" 
d="M419 696v-253l-64 -63l64 -64v-252l-64 -64h-254l-62 64v128l-16 48h157l-16 -48v-49l15 -15h97l15 15v158l-15 15h-61l-51 -16v159l51 -16h61l15 15v160l-15 14h-97l-15 -14v-50l16 -48h-157l16 48v128l62 64h254z" />
    <glyph glyph-name="four" unicode="4" horiz-adv-x="494" 
d="M450 0h-159l16 49v252l-15 15h-176l-63 64v331l-16 49h158l-15 -49v-253l15 -15h97l15 15v253l-16 49h159l-16 -49v-662z" />
    <glyph glyph-name="five" unicode="5" horiz-adv-x="492" 
d="M452 520h-159l16 48v50l-14 14h-99l-15 -14v-160l15 -15h176l64 -63v-316l-64 -64h-253l-63 64v128l-16 48h159l-18 -48v-49l15 -15h99l14 15v158l-14 15h-176l-63 64v380h380v-192z" />
    <glyph glyph-name="six" unicode="6" horiz-adv-x="483" 
d="M301 568v50l-14 14h-99l-15 -14v-160l15 -15h176l63 -63v-316l-63 -64h-253l-64 64v632l64 64h253l63 -64v-128l16 -48h-159zM287 316h-99l-15 -15v-158l15 -15h99l14 15v158z" />
    <glyph glyph-name="seven" unicode="7" horiz-adv-x="426" 
d="M177 45l14 -45h-176l36 61l228 571h-203l-53 -14l24 142h347l17 -128z" />
    <glyph glyph-name="eight" unicode="8" horiz-adv-x="475" 
d="M428 696v-249l-62 -63l62 -63v-257l-62 -64h-254l-65 64v257l62 63l-62 63v249l65 64h254zM287 632h-98l-14 -14v-156l14 -15h98l14 15v156zM287 320h-98l-14 -15v-164l14 -14h98l14 14v164z" />
    <glyph glyph-name="nine" unicode="9" horiz-adv-x="483" 
d="M436 696v-632l-64 -64h-253l-63 64v128l-16 48h159l-18 -48v-49l15 -15h97l15 15v158l-15 15h-174l-63 64v316l63 64h253zM293 632h-97l-15 -14v-160l15 -15h97l15 15v160z" />
    <glyph glyph-name="colon" unicode=":" horiz-adv-x="249" 
d="M169 606l44 -44v-88l-44 -44h-88l-44 44v88l44 44h88zM169 336l44 -44v-88l-44 -44h-88l-44 44v88l44 44h88z" />
    <glyph glyph-name="semicolon" unicode=";" horiz-adv-x="249" 
d="M169 606l44 -44v-88l-44 -44h-88l-44 44v88l44 44h88zM169 336l44 -44v-164l-53 -52l-79 -44v47l52 53v17l-10 11h-42l-44 44v88l44 44h88z" />
    <glyph glyph-name="less" unicode="&#x3c;" horiz-adv-x="415" 
d="M400 748l-200 -368l200 -367l-50 -52l-277 375l-44 44l44 44l277 375z" />
    <glyph glyph-name="equal" unicode="=" horiz-adv-x="528" 
d="M455 428l-63 16h-256l-63 -16v159l63 -16h256l63 16v-159zM455 175l-63 16h-256l-63 -16v157l63 -16h256l63 16v-157z" />
    <glyph glyph-name="greater" unicode="&#x3e;" horiz-adv-x="415" 
d="M67 799l275 -375l44 -44l-44 -44l-275 -375l-52 52l216 367l-216 368z" />
    <glyph glyph-name="question" unicode="?" horiz-adv-x="470" 
d="M426 696v-314l-62 -65h-82l-15 -14v-31l-18 -63h-88l-19 63v110l63 62h80l14 15v159l-14 14h-96l-15 -14v-50l15 -48h-159l16 48v128l63 64h255zM249 176l44 -44v-88l-44 -44h-88l-44 44v88l44 44h88z" />
    <glyph glyph-name="at" unicode="@" horiz-adv-x="810" 
d="M706 -128h-555l-63 64v762l63 62h508l63 -62v-509l-63 -62h-351l-29 29v322l29 29h194l29 -29v-242l15 -15h36l14 15v382l-14 14h-353l-14 -14v-603l14 -15h493zM387 221h36l15 15v160l-15 15h-36l-15 -15v-160z" />
    <glyph glyph-name="A" unicode="A" 
d="M515 0h-159l11 30l-28 116l-15 15h-125l-15 -15l-28 -116l11 -30h-159l25 51l156 665l-14 44h173l-14 -44l156 -665zM225 289h74l12 11l-49 243l-49 -243z" />
    <glyph glyph-name="B" unicode="B" horiz-adv-x="482" 
d="M39 760h332l64 -62v-248l-65 -63l65 -64v-260l-64 -63h-332l16 49v663zM181 464l15 -14h97l15 14v156l-15 15h-97l-15 -15v-156zM293 323h-97l-15 -15v-165l15 -15h97l15 15v165z" />
    <glyph glyph-name="C" unicode="C" horiz-adv-x="478" 
d="M47 63v635l64 62h253l63 -62v-128l16 -48h-159l17 48v50l-14 15h-99l-15 -15v-477l15 -15h99l14 15v49l-17 48h159l-16 -48v-129l-63 -63h-253z" />
    <glyph glyph-name="D" unicode="D" horiz-adv-x="482" 
d="M39 760h332l64 -62v-635l-64 -63h-332l14 49v663zM180 143l15 -15h97l15 15v477l-15 15h-97l-15 -15v-477z" />
    <glyph glyph-name="E" unicode="E" horiz-adv-x="456" 
d="M39 0l16 49v663l-16 48h380l23 -140l-52 15h-195l-15 -15v-157l15 -15h64l49 16v-159l-49 16h-64l-15 -14v-164l15 -15h195l52 15l-23 -143h-380z" />
    <glyph glyph-name="F" unicode="F" horiz-adv-x="456" 
d="M39 760h380l23 -140l-52 15h-195l-15 -15v-161l15 -15h64l48 16v-159l-48 16h-64l-15 -14v-254l16 -49h-157l16 49v663z" />
    <glyph glyph-name="G" unicode="G" horiz-adv-x="482" 
d="M47 63v635l64 62h253l63 -62v-128l16 -48h-159l17 48v50l-14 15h-98l-14 -15v-477l14 -15h98l14 15v137h-36l-28 128h206l-16 -50v-295l-63 -63h-253z" />
    <glyph glyph-name="H" unicode="H" horiz-adv-x="490" 
d="M39 760h157l-16 -49v-249l15 -15h97l15 15v249l-15 49h159l-16 -49v-663l16 -48h-159l15 48v257l-15 15h-97l-15 -15v-257l16 -48h-157l16 48v663z" />
    <glyph glyph-name="I" unicode="I" horiz-adv-x="235" 
d="M196 0h-157l16 48v663l-16 49h157l-16 -49v-663z" />
    <glyph glyph-name="J" unicode="J" horiz-adv-x="466" 
d="M427 760l-16 -49v-648l-63 -63h-255l-62 63v204l-16 50h158l-16 -50v-126l15 -14h97l15 14v570l-16 49h159z" />
    <glyph glyph-name="K" unicode="K" horiz-adv-x="538" 
d="M348 0l11 33l-115 278l-64 -111v-151l16 -49h-157l16 49v662l-16 49h157l-16 -49v-272l168 299l-10 22h178l-48 -61l-144 -249l160 -390l46 -60h-182z" />
    <glyph glyph-name="L" unicode="L" horiz-adv-x="456" 
d="M419 0h-380l16 48v663l-16 49h157l-15 -49v-570l15 -14h194l52 14z" />
    <glyph glyph-name="M" unicode="M" horiz-adv-x="662" 
d="M371 218h-80l-111 267v-437l16 -48h-157l16 48v663l-16 49h141l151 -344l151 344h141l-16 -49v-663l16 -48h-157l16 48v437z" />
    <glyph glyph-name="N" unicode="N" horiz-adv-x="546" 
d="M196 0h-157l16 48v663l-16 49h141l184 -463v414l-16 49h159l-16 -49v-663l16 -48h-143l-184 462v-414z" />
    <glyph glyph-name="O" unicode="O" horiz-adv-x="474" 
d="M427 698v-635l-63 -63h-253l-64 63v635l64 62h253zM284 632h-96l-15 -14v-477l15 -14h96l15 14v477z" />
    <glyph glyph-name="P" unicode="P" horiz-adv-x="464" 
d="M196 0h-157l16 48v663l-16 49h332l64 -62v-347l-64 -64h-176l-15 -15v-224zM195 414h97l15 14v190l-15 14h-97l-15 -14v-190z" />
    <glyph glyph-name="Q" unicode="Q" horiz-adv-x="475" 
d="M428 698v-635l-64 -63h-48l-15 -15v-65l16 -48h-158l16 48v65l-15 15h-48l-65 63v635l65 62h252zM287 632h-98l-14 -14v-477l14 -14h98l14 14v477z" />
    <glyph glyph-name="R" unicode="R" horiz-adv-x="482" 
d="M39 0l16 48v663l-16 49h332l64 -62v-346l-64 -64l55 -237l20 -51h-157l11 47l-54 229l-10 12h-41l-15 -15v-225l16 -48h-157zM293 414l15 14v190l-15 14h-98l-15 -14v-190l15 -14h98z" />
    <glyph glyph-name="S" unicode="S" horiz-adv-x="483" 
d="M448 520h-159l15 48v50l-15 14h-97l-15 -14v-160l15 -15h176l63 -63v-317l-63 -63h-253l-66 63v128l-14 48h158l-16 -48v-50l15 -14h97l15 14v160l-15 15h-174l-66 64v318l66 62h253l63 -62v-130z" />
    <glyph glyph-name="T" unicode="T" horiz-adv-x="478" 
d="M466 618l-54 14h-95l-14 -14v-570l16 -48h-159l16 48v570l-15 14h-97l-52 -14l23 142h407z" />
    <glyph glyph-name="U" unicode="U" horiz-adv-x="488" 
d="M435 711v-648l-64 -63h-254l-62 63v648l-16 49h157l-16 -49v-570l15 -14h98l15 14v570l-16 49h159z" />
    <glyph glyph-name="V" unicode="V" horiz-adv-x="494" 
d="M323 46l12 -46h-174l12 46l-136 640l-29 74h157l-9 -29l91 -476l91 476l-11 29h159l-30 -73z" />
    <glyph glyph-name="W" unicode="W" horiz-adv-x="814" 
d="M643 46l12 -46h-173l12 46l-87 438l-84 -438l12 -46h-174l12 46l-136 640l-29 74h157l-9 -29l91 -460l91 447l-11 42h159l-11 -42l92 -447l91 460l-11 29h159l-30 -73z" />
    <glyph glyph-name="X" unicode="X" horiz-adv-x="494" 
d="M448 49l38 -49h-181l18 31l-76 187l-76 -187l18 -31h-181l38 49l134 332l-134 330l-38 49h180l-15 -32l74 -183l74 183l-15 32h180l-38 -49l-134 -330z" />
    <glyph glyph-name="Y" unicode="Y" horiz-adv-x="524" 
d="M325 48l14 -48h-155l16 48v217l-155 439l-37 56h187l-18 -30l85 -279l85 279l-18 30h187l-37 -56l-154 -439v-217z" />
    <glyph glyph-name="Z" unicode="Z" horiz-adv-x="455" 
d="M402 0h-363v128l240 504h-196l-54 -14l24 142h366v-125l-242 -507h197l52 15z" />
    <glyph glyph-name="bracketleft" unicode="[" horiz-adv-x="305" 
d="M44 887h239v-127h-98l-14 -14v-731l14 -15h98v-128h-239v1015z" />
    <glyph glyph-name="backslash" unicode="\" horiz-adv-x="314" 
d="M41 680l-26 80h158l-12 -34l114 -645l24 -81h-158l11 35z" />
    <glyph glyph-name="bracketright" unicode="]" horiz-adv-x="305" 
d="M23 -128v128h97l15 15v731l-15 14h-97v127h238v-1015h-238z" />
    <glyph glyph-name="asciicircum" unicode="^" horiz-adv-x="646" 
d="M572 514l-249 113l-250 -113l-44 44l250 158l44 44l44 -44l249 -158z" />
    <glyph glyph-name="underscore" unicode="_" horiz-adv-x="587" 
d="M543 -143l-49 16h-401l-49 -16v159l49 -16h401l49 16v-159z" />
    <glyph glyph-name="grave" unicode="`" horiz-adv-x="530" 
d="M273 1039l89 -179l-39 -17l-176 156l66 76z" />
    <glyph glyph-name="a" unicode="a" 
d="M515 0h-159l11 30l-28 116l-15 15h-125l-15 -15l-28 -116l11 -30h-159l25 51l156 665l-14 44h173l-14 -44l156 -665zM225 289h74l12 11l-49 243l-49 -243z" />
    <glyph glyph-name="b" unicode="b" horiz-adv-x="482" 
d="M39 760h332l64 -62v-248l-65 -63l65 -64v-260l-64 -63h-332l16 49v663zM181 464l15 -14h97l15 14v156l-15 15h-97l-15 -15v-156zM293 323h-97l-15 -15v-165l15 -15h97l15 15v165z" />
    <glyph glyph-name="c" unicode="c" horiz-adv-x="478" 
d="M47 63v635l64 62h253l63 -62v-128l16 -48h-159l17 48v50l-14 15h-99l-15 -15v-477l15 -15h99l14 15v49l-17 48h159l-16 -48v-129l-63 -63h-253z" />
    <glyph glyph-name="d" unicode="d" horiz-adv-x="482" 
d="M39 760h332l64 -62v-635l-64 -63h-332l14 49v663zM180 143l15 -15h97l15 15v477l-15 15h-97l-15 -15v-477z" />
    <glyph glyph-name="e" unicode="e" horiz-adv-x="456" 
d="M39 0l16 49v663l-16 48h380l23 -140l-52 15h-195l-15 -15v-157l15 -15h64l49 16v-159l-49 16h-64l-15 -14v-164l15 -15h195l52 15l-23 -143h-380z" />
    <glyph glyph-name="f" unicode="f" horiz-adv-x="456" 
d="M39 760h380l23 -140l-52 15h-195l-15 -15v-161l15 -15h64l48 16v-159l-48 16h-64l-15 -14v-254l16 -49h-157l16 49v663z" />
    <glyph glyph-name="g" unicode="g" horiz-adv-x="482" 
d="M47 63v635l64 62h253l63 -62v-128l16 -48h-159l17 48v50l-14 15h-98l-14 -15v-477l14 -15h98l14 15v137h-36l-28 128h206l-16 -50v-295l-63 -63h-253z" />
    <glyph glyph-name="h" unicode="h" horiz-adv-x="490" 
d="M39 760h157l-16 -49v-249l15 -15h97l15 15v249l-15 49h159l-16 -49v-663l16 -48h-159l15 48v257l-15 15h-97l-15 -15v-257l16 -48h-157l16 48v663z" />
    <glyph glyph-name="i" unicode="i" horiz-adv-x="235" 
d="M196 0h-157l16 48v663l-16 49h157l-16 -49v-663z" />
    <glyph glyph-name="j" unicode="j" horiz-adv-x="466" 
d="M427 760l-16 -49v-648l-63 -63h-255l-62 63v204l-16 50h158l-16 -50v-126l15 -14h97l15 14v570l-16 49h159z" />
    <glyph glyph-name="k" unicode="k" horiz-adv-x="538" 
d="M348 0l11 33l-115 278l-64 -111v-151l16 -49h-157l16 49v662l-16 49h157l-16 -49v-272l168 299l-10 22h178l-48 -61l-144 -249l160 -390l46 -60h-182z" />
    <glyph glyph-name="l" unicode="l" horiz-adv-x="456" 
d="M419 0h-380l16 48v663l-16 49h157l-15 -49v-570l15 -14h194l52 14z" />
    <glyph glyph-name="m" unicode="m" horiz-adv-x="662" 
d="M371 218h-80l-111 267v-437l16 -48h-157l16 48v663l-16 49h141l151 -344l151 344h141l-16 -49v-663l16 -48h-157l16 48v437z" />
    <glyph glyph-name="n" unicode="n" horiz-adv-x="546" 
d="M196 0h-157l16 48v663l-16 49h141l184 -463v414l-16 49h159l-16 -49v-663l16 -48h-143l-184 462v-414z" />
    <glyph glyph-name="o" unicode="o" horiz-adv-x="474" 
d="M427 698v-635l-63 -63h-253l-64 63v635l64 62h253zM284 632h-96l-15 -14v-477l15 -14h96l15 14v477z" />
    <glyph glyph-name="p" unicode="p" horiz-adv-x="464" 
d="M196 0h-157l16 48v663l-16 49h332l64 -62v-347l-64 -64h-176l-15 -15v-224zM195 414h97l15 14v190l-15 14h-97l-15 -14v-190z" />
    <glyph glyph-name="q" unicode="q" horiz-adv-x="475" 
d="M428 698v-635l-64 -63h-48l-15 -15v-65l16 -48h-158l16 48v65l-15 15h-48l-65 63v635l65 62h252zM287 632h-98l-14 -14v-477l14 -14h98l14 14v477z" />
    <glyph glyph-name="r" unicode="r" horiz-adv-x="482" 
d="M39 0l16 48v663l-16 49h332l64 -62v-346l-64 -64l55 -237l20 -51h-157l11 47l-54 229l-10 12h-41l-15 -15v-225l16 -48h-157zM293 414l15 14v190l-15 14h-98l-15 -14v-190l15 -14h98z" />
    <glyph glyph-name="s" unicode="s" horiz-adv-x="483" 
d="M448 520h-159l15 48v50l-15 14h-97l-15 -14v-160l15 -15h176l63 -63v-317l-63 -63h-253l-66 63v128l-14 48h158l-16 -48v-50l15 -14h97l15 14v160l-15 15h-174l-66 64v318l66 62h253l63 -62v-130z" />
    <glyph glyph-name="t" unicode="t" horiz-adv-x="478" 
d="M466 618l-54 14h-95l-14 -14v-570l16 -48h-159l16 48v570l-15 14h-97l-52 -14l23 142h407z" />
    <glyph glyph-name="u" unicode="u" horiz-adv-x="488" 
d="M435 711v-648l-64 -63h-254l-62 63v648l-16 49h157l-16 -49v-570l15 -14h98l15 14v570l-16 49h159z" />
    <glyph glyph-name="v" unicode="v" horiz-adv-x="494" 
d="M323 46l12 -46h-174l12 46l-136 640l-29 74h157l-9 -29l91 -476l91 476l-11 29h159l-30 -73z" />
    <glyph glyph-name="w" unicode="w" horiz-adv-x="814" 
d="M643 46l12 -46h-173l12 46l-87 438l-84 -438l12 -46h-174l12 46l-136 640l-29 74h157l-9 -29l91 -460l91 447l-11 42h159l-11 -42l92 -447l91 460l-11 29h159l-30 -73z" />
    <glyph glyph-name="x" unicode="x" horiz-adv-x="494" 
d="M448 49l38 -49h-181l18 31l-76 187l-76 -187l18 -31h-181l38 49l134 332l-134 330l-38 49h180l-15 -32l74 -183l74 183l-15 32h180l-38 -49l-134 -330z" />
    <glyph glyph-name="y" unicode="y" horiz-adv-x="524" 
d="M325 48l14 -48h-155l16 48v217l-155 439l-37 56h187l-18 -30l85 -279l85 279l-18 30h187l-37 -56l-154 -439v-217z" />
    <glyph glyph-name="z" unicode="z" horiz-adv-x="455" 
d="M402 0h-363v128l240 504h-196l-54 -14l24 142h366v-125l-242 -507h197l52 15z" />
    <glyph glyph-name="braceleft" unicode="{" horiz-adv-x="335" 
d="M73 -64v385l-58 59l58 59v384l63 64h176v-127h-97l-15 -14v-731l15 -15h97v-128h-176z" />
    <glyph glyph-name="bar" unicode="|" horiz-adv-x="247" 
d="M203 -128h-159l16 48v919l-16 49h159l-16 -49v-919z" />
    <glyph glyph-name="braceright" unicode="}" horiz-adv-x="335" 
d="M199 -128h-176v128h97l15 15v731l-15 14h-97v127h176l62 -64v-384l59 -59l-59 -59v-385z" />
    <glyph glyph-name="asciitilde" unicode="~" horiz-adv-x="360" 
d="M29 321l18 59l41 40h69l83 -42l39 20l18 38l34 -32l-20 -58l-42 -42h-66l-84 43l-42 -19z" />
    <glyph glyph-name="exclamdown" unicode="&#xa1;" horiz-adv-x="264" 
d="M88 584l-44 44v88l44 44h88l44 -44v-88l-44 -44h-88zM69 49v277l19 225h88l19 -225v-277l16 -49h-158z" />
    <glyph glyph-name="cent" unicode="&#xa2;" horiz-adv-x="474" 
d="M284 303h159l-16 -48v-130l-63 -62h-126l-5 -63h-53l5 63h-74l-64 62v510l64 63h127l5 62h53l-5 -62h73l63 -63v-128l16 -48h-159l17 48v51l-14 14h-7l-31 -381h38l14 14v50zM196 191l31 381h-39l-15 -14v-353l15 -14h8z" />
    <glyph glyph-name="sterling" unicode="&#xa3;" horiz-adv-x="514" 
d="M484 143l-24 -143h-401v128l97 175l-15 14h-64l-48 -16v159l48 -16h64l15 15v239l63 62h241l24 -140l-52 15h-136l-15 -15v-161l15 -15h64l48 16v-159l-48 16h-64l-15 -14l-93 -167l8 -8h236z" />
    <glyph glyph-name="yen" unicode="&#xa5;" horiz-adv-x="524" 
d="M372 399h128v-59h-149l-20 -59h169v-58h-175v-175l14 -48h-155l16 48v175h-177v58h171l-20 59h-151v59h130l-108 305l-37 56h187l-18 -30l85 -279l85 279l-18 30h187l-37 -56z" />
    <glyph glyph-name="section" unicode="&#xa7;" horiz-adv-x="486" 
d="M434 522v-585l-64 -64h-254l-64 64v127l-15 49h158l-16 -49v-49l14 -15h98l14 15v149l-14 15h-175l-64 64v583l64 62h254l64 -62v-130l16 -48h-159l14 48v50l-14 14h-98l-14 -14v-148l13 -14h178zM291 456h-98l-14 -14v-122l14 -15h98l14 15v122z" />
    <glyph glyph-name="dieresis" unicode="&#xa8;" horiz-adv-x="587" 
d="M244 970l29 -30v-68l-29 -29h-68l-29 29v68l29 30h68zM411 970l29 -30v-68l-29 -29h-68l-30 29v68l30 30h68z" />
    <glyph glyph-name="copyright" unicode="&#xa9;" horiz-adv-x="720" 
d="M360 0l-330 190v380l330 190l330 -190v-380zM93 226l267 -153l267 153v307l-267 154l-267 -154v-307zM251 197v365l37 37h146l36 -37v-73l9 -28h-91l10 28v29l-9 8h-56l-9 -8v-275l9 -8h56l9 8v29l-10 27h91l-9 -27v-75l-36 -36h-146z" />
    <glyph glyph-name="ordfeminine" unicode="&#xaa;" horiz-adv-x="279" 
d="M233 476l10 -30h-168l-31 30v127l31 32h88l8 7v48l-8 8h-88l-31 -8l12 70h147l30 -30v-254zM163 571h-48l-8 -7v-49l8 -7h48l8 7v49zM44 319v63h189v-63h-189z" />
    <glyph glyph-name="guillemotleft" unicode="&#xab;" horiz-adv-x="498" 
d="M276 630l-113 -250l113 -249l-44 -44l-159 249l-44 44l44 44l159 250zM468 630l-113 -250l113 -249l-44 -44l-159 249l-44 44l44 44l159 250z" />
    <glyph glyph-name="registered" unicode="&#xae;" horiz-adv-x="398" 
d="M199 438l-179 103v206l179 103l178 -103v-206zM54 560l145 -83l144 83v167l-144 84l-145 -84v-167zM139 525l5 15v207l-5 15h104l20 -19v-108l-20 -20l17 -74l6 -16h-49l4 15l-17 71l-3 4h-13l-4 -5v-70l5 -15h-50zM219 654l5 5v59l-5 5h-31l-4 -5v-59l4 -5h31z" />
    <glyph glyph-name="macron" unicode="&#xaf;" horiz-adv-x="675" 
d="M528 872l-29 -29h-323l-29 29v67l29 29h323l29 -29v-67z" />
    <glyph glyph-name="degree" unicode="&#xb0;" horiz-adv-x="273" 
d="M244 706v-106l-55 -56h-104l-56 56v106l56 54h104zM103 716l-30 -29v-69l30 -30h68l29 30v69l-29 29h-68z" />
    <glyph glyph-name="acute" unicode="&#xb4;" horiz-adv-x="530" 
d="M317 1075l66 -76l-176 -156l-38 17l88 179z" />
    <glyph glyph-name="paragraph" unicode="&#xb6;" horiz-adv-x="706" 
d="M662 -128h-159l16 48v700l-15 15h-80l-14 -15v-700l16 -48h-159l16 48v381l-15 15h-176l-63 64v318l63 62h570l-16 -49v-791z" />
    <glyph glyph-name="periodcentered" unicode="&#xb7;" horiz-adv-x="249" 
d="M169 468l44 -44v-88l-44 -44h-88l-44 44v88l44 44h88z" />
    <glyph glyph-name="cedilla" unicode="&#xb8;" horiz-adv-x="470" 
d="M260 0l41 -41v-52l-32 -40l-46 -30l-54 16l54 54v52l-42 41h79z" />
    <glyph glyph-name="ordmasculine" unicode="&#xba;" horiz-adv-x="279" 
d="M203 446h-127l-32 30v254l32 30h127l32 -30v-254zM163 698h-48l-8 -8v-176l8 -7h48l8 7v176zM44 319v63h191v-63h-191z" />
    <glyph glyph-name="guillemotright" unicode="&#xbb;" horiz-adv-x="498" 
d="M73 674l159 -250l44 -44l-44 -44l-159 -249l-44 44l114 249l-114 250zM265 674l159 -250l44 -44l-44 -44l-159 -249l-44 44l114 249l-114 250z" />
    <glyph glyph-name="questiondown" unicode="&#xbf;" horiz-adv-x="470" 
d="M221 584l-44 44v88l44 44h88l44 -44v-88l-44 -44h-88zM44 64v314l62 65h82l15 14v31l18 63h88l19 -63v-110l-63 -62h-80l-14 -15v-159l14 -14h96l15 14v50l-15 48h159l-16 -48v-128l-63 -64h-255z" />
    <glyph glyph-name="Agrave" unicode="&#xc0;" 
d="M279 1039l88 -179l-39 -17l-176 156l67 76zM515 0h-159l11 30l-28 116l-15 15h-125l-15 -15l-28 -116l11 -30h-159l25 51l156 665l-14 44h173l-14 -44l156 -665zM225 289h74l12 11l-49 243l-49 -243z" />
    <glyph glyph-name="Aacute" unicode="&#xc1;" 
d="M317 1075l66 -76l-176 -156l-38 17l88 179zM515 0h-159l11 30l-28 116l-15 15h-125l-15 -15l-28 -116l11 -30h-159l25 51l156 665l-14 44h173l-14 -44l156 -665zM225 289h74l12 11l-49 243l-49 -243z" />
    <glyph glyph-name="Acircumflex" unicode="&#xc2;" 
d="M116 846l68 142l68 69h15l69 -69l68 -142h-80l-56 124h-17l-56 -124h-79zM490 51l-156 665l14 44h-173l14 -44l-156 -665l-25 -51h159l-11 30l28 116l15 15h125l15 -15l28 -116l-11 -30h159zM213 300l49 243l49 -243l-12 -11h-74z" />
    <glyph glyph-name="Atilde" unicode="&#xc3;" 
d="M108 876l19 59l40 41h69l84 -42l38 18l20 40l32 -32l-19 -58l-41 -42h-69l-82 43l-42 -19zM490 51l-156 665l14 44h-173l14 -44l-156 -665l-25 -51h159l-11 30l28 116l15 15h125l15 -15l28 -116l-11 -30h159zM213 300l49 243l49 -243l-12 -11h-74z" />
    <glyph glyph-name="Adieresis" unicode="&#xc4;" 
d="M209 970l30 -30v-68l-30 -29h-66l-30 29v68l30 30h66zM378 970l29 -30v-68l-29 -29h-69l-29 29v68l29 30h69zM515 0h-159l11 30l-28 116l-15 15h-125l-15 -15l-28 -116l11 -30h-159l25 51l156 665l-14 44h173l-14 -44l156 -665zM225 289h74l12 11l-49 243l-49 -243z" />
    <glyph glyph-name="Aring" unicode="&#xc5;" 
d="M367 1010v-106l-55 -56h-104l-56 56v106l56 55h104zM225 1021l-29 -30v-69l29 -30h68l30 30v69l-30 30h-68zM515 0h-159l11 30l-28 116l-15 15h-125l-15 -15l-28 -116l11 -30h-159l25 51l156 665l-14 44h173l-14 -44l156 -665zM225 289h74l12 11l-49 243l-49 -243z" />
    <glyph glyph-name="AE" unicode="&#xc6;" horiz-adv-x="764" 
d="M698 128l52 15l-23 -143h-380l16 49v102l-10 12h-119l-21 -17l-50 -115l2 -30h-157l35 52l296 663l-4 44h392l23 -140l-52 15h-195l-15 -15l4 -165l11 -11h64l49 16v-159l-49 16h-64l-8 -8l4 -177l4 -4h195zM363 296v218l-88 -212l9 -11h71z" />
    <glyph glyph-name="Ccedilla" unicode="&#xc7;" horiz-adv-x="478" 
d="M443 240l-16 -48v-129l-63 -63h-100l40 -40v-53l-31 -40l-48 -30l-53 16l53 54v53l-38 40h-76l-64 63v635l64 62h253l63 -62v-128l16 -48h-159l17 48v50l-14 15h-99l-15 -15v-477l15 -15h99l14 15v49l-17 48h159z" />
    <glyph glyph-name="Egrave" unicode="&#xc8;" horiz-adv-x="456" 
d="M244 1039l88 -179l-39 -17l-176 156l67 76zM39 0l16 49v663l-16 48h380l23 -140l-52 15h-195l-15 -15v-157l15 -15h64l49 16v-159l-49 16h-64l-15 -14v-164l15 -15h195l52 15l-23 -143h-380z" />
    <glyph glyph-name="Eacute" unicode="&#xc9;" horiz-adv-x="456" 
d="M281 1075l67 -76l-176 -156l-39 17l88 179zM39 0l16 49v663l-16 48h380l23 -140l-52 15h-195l-15 -15v-157l15 -15h64l49 16v-159l-49 16h-64l-15 -14v-164l15 -15h195l52 15l-23 -143h-380z" />
    <glyph glyph-name="Ecircumflex" unicode="&#xca;" horiz-adv-x="456" 
d="M81 846l67 142l69 69h15l69 -69l67 -142h-79l-56 124h-17l-56 -124h-79zM419 0l23 143l-52 -15h-195l-15 15v164l15 14h64l49 -16v159l-49 -16h-64l-15 15v157l15 15h195l52 -15l-23 140h-380l16 -48v-663l-16 -49h380z" />
    <glyph glyph-name="Edieresis" unicode="&#xcb;" horiz-adv-x="456" 
d="M175 970l29 -30v-68l-29 -29h-68l-30 29v68l30 30h68zM342 970l29 -30v-68l-29 -29h-67l-30 29v68l30 30h67zM39 0l16 49v663l-16 48h380l23 -140l-52 15h-195l-15 -15v-157l15 -15h64l49 16v-159l-49 16h-64l-15 -14v-164l15 -15h195l52 15l-23 -143h-380z" />
    <glyph glyph-name="Igrave" unicode="&#xcc;" horiz-adv-x="240" 
d="M107 1039l88 -179l-38 -17l-176 156l66 76zM201 0h-157l16 48v663l-16 49h157l-16 -49v-663z" />
    <glyph glyph-name="Iacute" unicode="&#xcd;" horiz-adv-x="240" 
d="M193 1075l67 -76l-176 -156l-39 17l88 179zM196 0h-157l16 48v663l-16 49h157l-16 -49v-663z" />
    <glyph glyph-name="Icircumflex" unicode="&#xce;" horiz-adv-x="252" 
d="M-17 846l66 142l70 69h14l70 -69l66 -142h-78l-56 124h-18l-56 -124h-78zM189 48v663l16 49h-157l16 -49v-663l-16 -48h157z" />
    <glyph glyph-name="Idieresis" unicode="&#xcf;" horiz-adv-x="252" 
d="M76 970l29 -30v-68l-29 -29h-67l-29 29v68l29 30h67zM244 970l29 -30v-68l-29 -29h-68l-29 29v68l29 30h68zM205 0h-157l16 48v663l-16 49h157l-16 -49v-663z" />
    <glyph glyph-name="Eth" unicode="&#xd0;" horiz-adv-x="499" 
d="M56 760h334l62 -62v-635l-62 -63h-334l15 49v254l-15 14h-48v127h48l15 15v253zM199 459l14 -15h48v-127h-48l-14 -14v-160l14 -15h96l15 15v477l-15 15h-96l-14 -15v-161z" />
    <glyph glyph-name="Ntilde" unicode="&#xd1;" horiz-adv-x="546" 
d="M119 876l17 59l41 41h70l84 -42l37 18l20 40l32 -32l-20 -58l-40 -42h-68l-84 43l-40 -19zM180 48v404l184 -452h143l-16 48v663l16 49h-159l16 -49v-404l-184 453h-141l16 -49v-663l-16 -48h157z" />
    <glyph glyph-name="Ograve" unicode="&#xd2;" horiz-adv-x="474" 
d="M255 1039l88 -179l-38 -17l-176 156l66 76zM427 698v-635l-63 -63h-253l-64 63v635l64 62h253zM284 632h-96l-15 -14v-477l15 -14h96l15 14v477z" />
    <glyph glyph-name="Oacute" unicode="&#xd3;" horiz-adv-x="474" 
d="M293 1075l67 -76l-176 -156l-39 17l88 179zM427 698v-635l-63 -63h-253l-64 63v635l64 62h253zM284 632h-96l-15 -14v-477l15 -14h96l15 14v477z" />
    <glyph glyph-name="Ocircumflex" unicode="&#xd4;" horiz-adv-x="474" 
d="M92 846l68 142l69 69h15l68 -69l68 -142h-79l-56 124h-17l-56 -124h-80zM364 760h-253l-64 -62v-635l64 -63h253l63 63v635zM299 618v-477l-15 -14h-96l-15 14v477l15 14h96z" />
    <glyph glyph-name="Otilde" unicode="&#xd5;" horiz-adv-x="474" 
d="M92 876l19 59l40 41h69l84 -42l38 18l20 40l32 -32l-19 -58l-41 -42h-69l-84 43l-40 -19zM364 760h-253l-64 -62v-635l64 -63h253l63 63v635zM299 618v-477l-15 -14h-96l-15 14v477l15 14h96z" />
    <glyph glyph-name="Odieresis" unicode="&#xd6;" horiz-adv-x="474" 
d="M187 970l29 -30v-68l-29 -29h-68l-30 29v68l30 30h68zM354 970l29 -30v-68l-29 -29h-67l-30 29v68l30 30h67zM427 698v-635l-63 -63h-253l-64 63v635l64 62h253zM284 632h-96l-15 -14v-477l15 -14h96l15 14v477z" />
    <glyph glyph-name="Oslash" unicode="&#xd8;" horiz-adv-x="474" 
d="M427 698v-635l-63 -63h-253l-64 63v635l64 62h253zM175 618v-354l80 368h-66zM300 141v365l-83 -379h68z" />
    <glyph glyph-name="Ugrave" unicode="&#xd9;" horiz-adv-x="488" 
d="M247 1039l88 -179l-39 -17l-176 156l67 76zM435 711v-648l-64 -63h-254l-62 63v648l-16 49h157l-16 -49v-570l15 -14h98l15 14v570l-16 49h159z" />
    <glyph glyph-name="Uacute" unicode="&#xda;" horiz-adv-x="488" 
d="M313 1075l67 -76l-176 -156l-39 17l88 179zM435 711v-648l-64 -63h-254l-62 63v648l-16 49h157l-16 -49v-570l15 -14h98l15 14v570l-16 49h159z" />
    <glyph glyph-name="Ucircumflex" unicode="&#xdb;" horiz-adv-x="488" 
d="M101 846l68 142l68 69h15l69 -69l69 -142h-81l-56 124h-17l-56 -124h-79zM451 760h-159l16 -49v-570l-15 -14h-98l-15 14v570l16 49h-157l16 -49v-648l62 -63h254l64 63v648z" />
    <glyph glyph-name="Udieresis" unicode="&#xdc;" horiz-adv-x="488" 
d="M193 970l30 -30v-68l-30 -29h-66l-30 29v68l30 30h66zM363 970l29 -30v-68l-29 -29h-68l-30 29v68l30 30h68zM435 711v-648l-64 -63h-254l-62 63v648l-16 49h157l-16 -49v-570l15 -14h98l15 14v570l-16 49h159z" />
    <glyph glyph-name="Yacute" unicode="&#xdd;" horiz-adv-x="524" 
d="M334 1075l65 -76l-176 -156l-38 17l88 179zM325 48l14 -48h-155l16 48v217l-155 439l-37 56h187l-18 -30l85 -279l85 279l-18 30h187l-37 -56l-154 -439v-217z" />
    <glyph glyph-name="Thorn" unicode="&#xde;" horiz-adv-x="464" 
d="M196 0h-157l16 48v663l-16 49h157l-16 -49v-95l15 -15h176l64 -63v-319l-64 -63h-176l-15 -14v-94zM195 283h97l15 15v160l-15 15h-97l-15 -15v-160z" />
    <glyph glyph-name="germandbls" unicode="&#xdf;" horiz-adv-x="962" 
d="M448 520h-159l15 48v50l-15 14h-97l-15 -14v-160l15 -15h176l63 -63v-317l-63 -63h-253l-66 63v128l-14 48h158l-16 -48v-50l15 -14h97l15 14v160l-15 15h-174l-66 64v318l66 62h253l63 -62v-130zM926 520h-159l15 48v50l-15 14h-96l-15 -14v-160l15 -15h176l63 -63v-317
l-63 -63h-255l-64 63v128l-14 48h158l-16 -48v-50l15 -14h96l15 14v160l-15 15h-175l-64 64v318l64 62h255l63 -62v-130z" />
    <glyph glyph-name="agrave" unicode="&#xe0;" 
d="M279 1039l88 -179l-39 -17l-176 156l67 76zM515 0h-159l11 30l-28 116l-15 15h-125l-15 -15l-28 -116l11 -30h-159l25 51l156 665l-14 44h173l-14 -44l156 -665zM225 289h74l12 11l-49 243l-49 -243z" />
    <glyph glyph-name="aacute" unicode="&#xe1;" 
d="M317 1075l66 -76l-176 -156l-38 17l88 179zM515 0h-159l11 30l-28 116l-15 15h-125l-15 -15l-28 -116l11 -30h-159l25 51l156 665l-14 44h173l-14 -44l156 -665zM225 289h74l12 11l-49 243l-49 -243z" />
    <glyph glyph-name="acircumflex" unicode="&#xe2;" 
d="M116 846l68 142l68 69h15l69 -69l68 -142h-80l-56 124h-17l-56 -124h-79zM490 51l-156 665l14 44h-173l14 -44l-156 -665l-25 -51h159l-11 30l28 116l15 15h125l15 -15l28 -116l-11 -30h159zM213 300l49 243l49 -243l-12 -11h-74z" />
    <glyph glyph-name="atilde" unicode="&#xe3;" 
d="M108 876l19 59l40 41h69l84 -42l38 18l20 40l32 -32l-19 -58l-41 -42h-69l-82 43l-42 -19zM490 51l-156 665l14 44h-173l14 -44l-156 -665l-25 -51h159l-11 30l28 116l15 15h125l15 -15l28 -116l-11 -30h159zM213 300l49 243l49 -243l-12 -11h-74z" />
    <glyph glyph-name="adieresis" unicode="&#xe4;" 
d="M209 970l30 -30v-68l-30 -29h-66l-30 29v68l30 30h66zM378 970l29 -30v-68l-29 -29h-69l-29 29v68l29 30h69zM515 0h-159l11 30l-28 116l-15 15h-125l-15 -15l-28 -116l11 -30h-159l25 51l156 665l-14 44h173l-14 -44l156 -665zM225 289h74l12 11l-49 243l-49 -243z" />
    <glyph glyph-name="aring" unicode="&#xe5;" 
d="M367 1010v-106l-55 -56h-104l-56 56v106l56 55h104zM225 1021l-29 -30v-69l29 -30h68l30 30v69l-30 30h-68zM515 0h-159l11 30l-28 116l-15 15h-125l-15 -15l-28 -116l11 -30h-159l25 51l156 665l-14 44h173l-14 -44l156 -665zM225 289h74l12 11l-49 243l-49 -243z" />
    <glyph glyph-name="ae" unicode="&#xe6;" horiz-adv-x="764" 
d="M698 128l52 15l-23 -143h-380l16 49v102l-10 12h-119l-21 -17l-50 -115l2 -30h-157l35 52l296 663l-4 44h392l23 -140l-52 15h-195l-15 -15l4 -165l11 -11h64l49 16v-159l-49 16h-64l-8 -8l4 -177l4 -4h195zM363 296v218l-88 -212l9 -11h71z" />
    <glyph glyph-name="ccedilla" unicode="&#xe7;" horiz-adv-x="478" 
d="M443 240l-16 -48v-129l-63 -63h-100l40 -40v-53l-31 -40l-48 -30l-53 16l53 54v53l-38 40h-76l-64 63v635l64 62h253l63 -62v-128l16 -48h-159l17 48v50l-14 15h-99l-15 -15v-477l15 -15h99l14 15v49l-17 48h159z" />
    <glyph glyph-name="egrave" unicode="&#xe8;" horiz-adv-x="456" 
d="M244 1039l88 -179l-39 -17l-176 156l67 76zM39 0l16 49v663l-16 48h380l23 -140l-52 15h-195l-15 -15v-157l15 -15h64l49 16v-159l-49 16h-64l-15 -14v-164l15 -15h195l52 15l-23 -143h-380z" />
    <glyph glyph-name="eacute" unicode="&#xe9;" horiz-adv-x="456" 
d="M281 1075l67 -76l-176 -156l-39 17l88 179zM39 0l16 49v663l-16 48h380l23 -140l-52 15h-195l-15 -15v-157l15 -15h64l49 16v-159l-49 16h-64l-15 -14v-164l15 -15h195l52 15l-23 -143h-380z" />
    <glyph glyph-name="ecircumflex" unicode="&#xea;" horiz-adv-x="456" 
d="M81 846l67 142l69 69h15l69 -69l67 -142h-79l-56 124h-17l-56 -124h-79zM419 0l23 143l-52 -15h-195l-15 15v164l15 14h64l49 -16v159l-49 -16h-64l-15 15v157l15 15h195l52 -15l-23 140h-380l16 -48v-663l-16 -49h380z" />
    <glyph glyph-name="edieresis" unicode="&#xeb;" horiz-adv-x="456" 
d="M175 970l29 -30v-68l-29 -29h-68l-30 29v68l30 30h68zM342 970l29 -30v-68l-29 -29h-67l-30 29v68l30 30h67zM39 0l16 49v663l-16 48h380l23 -140l-52 15h-195l-15 -15v-157l15 -15h64l49 16v-159l-49 16h-64l-15 -14v-164l15 -15h195l52 15l-23 -143h-380z" />
    <glyph glyph-name="igrave" unicode="&#xec;" horiz-adv-x="240" 
d="M107 1039l88 -179l-38 -17l-176 156l66 76zM201 0h-157l16 48v663l-16 49h157l-16 -49v-663z" />
    <glyph glyph-name="iacute" unicode="&#xed;" horiz-adv-x="240" 
d="M193 1075l67 -76l-176 -156l-39 17l88 179zM196 0h-157l16 48v663l-16 49h157l-16 -49v-663z" />
    <glyph glyph-name="icircumflex" unicode="&#xee;" horiz-adv-x="252" 
d="M-17 846l66 142l70 69h14l70 -69l66 -142h-78l-56 124h-18l-56 -124h-78zM189 48v663l16 49h-157l16 -49v-663l-16 -48h157z" />
    <glyph glyph-name="idieresis" unicode="&#xef;" horiz-adv-x="252" 
d="M76 970l29 -30v-68l-29 -29h-67l-29 29v68l29 30h67zM244 970l29 -30v-68l-29 -29h-68l-29 29v68l29 30h68zM205 0h-157l16 48v663l-16 49h157l-16 -49v-663z" />
    <glyph glyph-name="eth" unicode="&#xf0;" horiz-adv-x="499" 
d="M56 760h334l62 -62v-635l-62 -63h-334l15 49v254l-15 14h-48v127h48l15 15v253zM199 459l14 -15h48v-127h-48l-14 -14v-160l14 -15h96l15 15v477l-15 15h-96l-14 -15v-161z" />
    <glyph glyph-name="ntilde" unicode="&#xf1;" horiz-adv-x="546" 
d="M119 876l17 59l41 41h70l84 -42l37 18l20 40l32 -32l-20 -58l-40 -42h-68l-84 43l-40 -19zM180 48v404l184 -452h143l-16 48v663l16 49h-159l16 -49v-404l-184 453h-141l16 -49v-663l-16 -48h157z" />
    <glyph glyph-name="ograve" unicode="&#xf2;" horiz-adv-x="474" 
d="M255 1039l88 -179l-38 -17l-176 156l66 76zM427 698v-635l-63 -63h-253l-64 63v635l64 62h253zM284 632h-96l-15 -14v-477l15 -14h96l15 14v477z" />
    <glyph glyph-name="oacute" unicode="&#xf3;" horiz-adv-x="474" 
d="M293 1075l67 -76l-176 -156l-39 17l88 179zM427 698v-635l-63 -63h-253l-64 63v635l64 62h253zM284 632h-96l-15 -14v-477l15 -14h96l15 14v477z" />
    <glyph glyph-name="ocircumflex" unicode="&#xf4;" horiz-adv-x="474" 
d="M92 846l68 142l69 69h15l68 -69l68 -142h-79l-56 124h-17l-56 -124h-80zM364 760h-253l-64 -62v-635l64 -63h253l63 63v635zM299 618v-477l-15 -14h-96l-15 14v477l15 14h96z" />
    <glyph glyph-name="otilde" unicode="&#xf5;" horiz-adv-x="474" 
d="M92 876l19 59l40 41h69l84 -42l38 18l20 40l32 -32l-19 -58l-41 -42h-69l-84 43l-40 -19zM364 760h-253l-64 -62v-635l64 -63h253l63 63v635zM299 618v-477l-15 -14h-96l-15 14v477l15 14h96z" />
    <glyph glyph-name="odieresis" unicode="&#xf6;" horiz-adv-x="474" 
d="M187 970l29 -30v-68l-29 -29h-68l-30 29v68l30 30h68zM354 970l29 -30v-68l-29 -29h-67l-30 29v68l30 30h67zM427 698v-635l-63 -63h-253l-64 63v635l64 62h253zM284 632h-96l-15 -14v-477l15 -14h96l15 14v477z" />
    <glyph glyph-name="divide" unicode="&#xf7;" horiz-adv-x="617" 
d="M415 678v-106l-53 -56h-105l-56 56v106l56 54h105zM275 688l-30 -29v-69l30 -30h67l29 30v69l-29 29h-67zM544 300l-62 16h-346l-63 -16v159l63 -16h346l62 16v-159zM415 189v-106l-53 -55h-105l-56 55v106l56 54h105zM275 199l-30 -30v-68l30 -29h67l29 29v68l-29 30
h-67z" />
    <glyph glyph-name="oslash" unicode="&#xf8;" horiz-adv-x="474" 
d="M427 698v-635l-63 -63h-253l-64 63v635l64 62h253zM175 618v-354l80 368h-66zM300 141v365l-83 -379h68z" />
    <glyph glyph-name="ugrave" unicode="&#xf9;" horiz-adv-x="488" 
d="M247 1039l88 -179l-39 -17l-176 156l67 76zM435 711v-648l-64 -63h-254l-62 63v648l-16 49h157l-16 -49v-570l15 -14h98l15 14v570l-16 49h159z" />
    <glyph glyph-name="uacute" unicode="&#xfa;" horiz-adv-x="488" 
d="M313 1075l67 -76l-176 -156l-39 17l88 179zM435 711v-648l-64 -63h-254l-62 63v648l-16 49h157l-16 -49v-570l15 -14h98l15 14v570l-16 49h159z" />
    <glyph glyph-name="ucircumflex" unicode="&#xfb;" horiz-adv-x="488" 
d="M101 846l68 142l68 69h15l69 -69l69 -142h-81l-56 124h-17l-56 -124h-79zM451 760h-159l16 -49v-570l-15 -14h-98l-15 14v570l16 49h-157l16 -49v-648l62 -63h254l64 63v648z" />
    <glyph glyph-name="udieresis" unicode="&#xfc;" horiz-adv-x="488" 
d="M193 970l30 -30v-68l-30 -29h-66l-30 29v68l30 30h66zM363 970l29 -30v-68l-29 -29h-68l-30 29v68l30 30h68zM435 711v-648l-64 -63h-254l-62 63v648l-16 49h157l-16 -49v-570l15 -14h98l15 14v570l-16 49h159z" />
    <glyph glyph-name="yacute" unicode="&#xfd;" horiz-adv-x="524" 
d="M334 1075l65 -76l-176 -156l-38 17l88 179zM325 48l14 -48h-155l16 48v217l-155 439l-37 56h187l-18 -30l85 -279l85 279l-18 30h187l-37 -56l-154 -439v-217z" />
    <glyph glyph-name="thorn" unicode="&#xfe;" horiz-adv-x="464" 
d="M196 0h-157l16 48v663l-16 49h157l-16 -49v-95l15 -15h176l64 -63v-319l-64 -63h-176l-15 -14v-94zM195 283h97l15 15v160l-15 15h-97l-15 -15v-160z" />
    <glyph glyph-name="ydieresis" unicode="&#xff;" horiz-adv-x="524" 
d="M211 970l30 -30v-68l-30 -29h-66l-30 29v68l30 30h66zM381 970l29 -30v-68l-29 -29h-68l-30 29v68l30 30h68zM325 48l14 -48h-155l16 48v217l-155 439l-37 56h187l-18 -30l85 -279l85 279l-18 30h187l-37 -56l-154 -439v-217z" />
    <glyph glyph-name="OE" unicode="&#x152;" horiz-adv-x="703" 
d="M636 128l52 15l-22 -143h-555l-64 63v635l64 62h555l22 -140l-52 15h-194l-15 -15v-161l15 -15h64l49 16v-159l-49 16h-64l-15 -14v-160l15 -15h194zM299 141v477l-15 14h-96l-15 -14v-477l15 -14h96z" />
    <glyph glyph-name="oe" unicode="&#x153;" horiz-adv-x="702" 
d="M636 128l52 15l-22 -143h-555l-64 63v635l64 62h555l22 -140l-52 15h-194l-15 -15v-161l15 -15h64l49 16v-159l-49 16h-64l-15 -14v-160l15 -15h194zM299 141v477l-15 14h-96l-15 -14v-477l15 -14h96z" />
    <glyph glyph-name="Scaron" unicode="&#x160;" horiz-adv-x="483" 
d="M398 1057l-70 -142l-68 -69h-15l-69 69l-65 142h78l55 -125h17l58 125h79zM431 568v130l-63 62h-253l-66 -62v-318l66 -64h174l15 -15v-160l-15 -14h-97l-15 14v50l16 48h-158l14 -48v-128l66 -63h253l63 63v317l-63 63h-176l-15 15v160l15 14h97l15 -14v-50l-15 -48h159
z" />
    <glyph glyph-name="scaron" unicode="&#x161;" horiz-adv-x="483" 
d="M398 1057l-70 -142l-68 -69h-15l-69 69l-65 142h78l55 -125h17l58 125h79zM431 568v130l-63 62h-253l-66 -62v-318l66 -64h174l15 -15v-160l-15 -14h-97l-15 14v50l16 48h-158l14 -48v-128l66 -63h253l63 63v317l-63 63h-176l-15 15v160l15 14h97l15 -14v-50l-15 -48h159
z" />
    <glyph glyph-name="Ydieresis" unicode="&#x178;" horiz-adv-x="524" 
d="M211 970l30 -30v-68l-30 -29h-66l-30 29v68l30 30h66zM381 970l29 -30v-68l-29 -29h-68l-30 29v68l30 30h68zM325 48l14 -48h-155l16 48v217l-155 439l-37 56h187l-18 -30l85 -279l85 279l-18 30h187l-37 -56l-154 -439v-217z" />
    <glyph glyph-name="florin" unicode="&#x192;" horiz-adv-x="508" 
d="M248 760h210l2 -140l-52 15h-101l-16 -15l-22 -161l12 -15h65l49 16l-21 -159l-47 16h-64l-15 -14l-37 -254l9 -49h-159l23 49l39 254l-15 14h-64l-49 -16l21 159l47 -16h64l16 15l36 239z" />
    <glyph glyph-name="circumflex" unicode="&#x2c6;" horiz-adv-x="582" 
d="M147 846l68 142l68 69h14l70 -69l68 -142h-80l-56 124h-18l-56 -124h-78z" />
    <glyph glyph-name="caron" unicode="&#x2c7;" horiz-adv-x="582" 
d="M435 1057l-69 -142l-70 -69h-15l-68 69l-66 142h78l55 -125h17l58 125h80z" />
    <glyph glyph-name="ring" unicode="&#x2da;" horiz-adv-x="508" 
d="M362 1010v-106l-55 -56h-104l-56 56v106l56 55h104zM220 1021l-29 -30v-69l29 -30h68l29 30v69l-29 30h-68z" />
    <glyph glyph-name="tilde" unicode="&#x2dc;" horiz-adv-x="595" 
d="M147 876l17 59l41 41h70l83 -42l38 18l19 40l33 -32l-20 -58l-41 -42h-67l-84 43l-41 -19z" />
    <glyph glyph-name="endash" unicode="&#x2013;" horiz-adv-x="587" 
d="M543 300l-49 16h-401l-49 -16v159l49 -16h401l49 16v-159z" />
    <glyph glyph-name="emdash" unicode="&#x2014;" horiz-adv-x="704" 
d="M660 300l-49 16h-518l-49 -16v159l49 -16h518l49 16v-159z" />
    <glyph glyph-name="quoteleft" unicode="&#x2018;" horiz-adv-x="249" 
d="M81 500l-44 44v164l52 52l80 44v-46l-53 -54v-17l11 -11h42l44 -44v-88l-44 -44h-88z" />
    <glyph glyph-name="quoteright" unicode="&#x2019;" horiz-adv-x="249" 
d="M169 804l44 -44v-162l-53 -54l-79 -44v48l52 52v18l-10 10h-42l-44 44v88l44 44h88z" />
    <glyph glyph-name="quotesinglbase" unicode="&#x201a;" horiz-adv-x="249" 
d="M169 176l44 -44v-163l-53 -53l-79 -44v47l52 53v17l-10 11h-42l-44 44v88l44 44h88z" />
    <glyph glyph-name="quotedblleft" unicode="&#x201c;" horiz-adv-x="470" 
d="M81 500l-44 44v164l52 52l80 44v-46l-53 -54v-17l11 -11h42l44 -44v-88l-44 -44h-88zM301 500l-44 44v164l52 52l81 44v-46l-54 -54v-17l11 -11h43l44 -44v-88l-44 -44h-89z" />
    <glyph glyph-name="quotedblright" unicode="&#x201d;" horiz-adv-x="470" 
d="M169 804l44 -44v-162l-53 -54l-79 -44v48l52 52v18l-10 10h-42l-44 44v88l44 44h88zM390 804l44 -44v-162l-54 -54l-79 -44v48l53 52v18l-11 10h-42l-44 44v88l44 44h89z" />
    <glyph glyph-name="quotedblbase" unicode="&#x201e;" horiz-adv-x="470" 
d="M169 176l44 -44v-163l-53 -53l-79 -44v47l52 53v17l-10 11h-42l-44 44v88l44 44h88zM390 176l44 -44v-163l-54 -53l-79 -44v47l53 53v17l-11 11h-42l-44 44v88l44 44h89z" />
    <glyph glyph-name="dagger" unicode="&#x2020;" horiz-adv-x="440" 
d="M411 607v-159l-49 16h-79v-415l16 -49h-158l16 49v415h-78l-50 -16v159l50 -16h78v120l-16 49h158l-16 -49v-120h79z" />
    <glyph glyph-name="bullet" unicode="&#x2022;" horiz-adv-x="249" 
d="M169 468l44 -44v-88l-44 -44h-88l-44 44v88l44 44h88z" />
    <glyph glyph-name="ellipsis" unicode="&#x2026;" horiz-adv-x="719" 
d="M169 176l44 -44v-88l-44 -44h-88l-44 44v88l44 44h88zM404 176l44 -44v-88l-44 -44h-88l-44 44v88l44 44h88zM639 176l44 -44v-88l-44 -44h-88l-44 44v88l44 44h88z" />
    <glyph glyph-name="perthousand" unicode="&#x2030;" horiz-adv-x="853" 
d="M229 706v-106l-54 -56h-104l-56 56v106l56 54h104zM303 35l10 -35h-157l24 81l113 645l-12 34h159l-25 -80zM88 716l-29 -29v-69l29 -30h68l29 30v69l-29 29h-68zM580 161v-105l-54 -56h-104l-56 56v105l56 55h104zM838 161v-105l-55 -56h-104l-55 56v105l55 55h104z
M439 172l-29 -29v-70l29 -29h68l29 29v70l-29 29h-68zM698 172l-30 -29v-70l30 -29h66l30 29v70l-30 29h-66z" />
    <glyph glyph-name="guilsinglleft" unicode="&#x2039;" horiz-adv-x="305" 
d="M276 630l-113 -250l113 -249l-44 -44l-159 249l-44 44l44 44l159 250z" />
    <glyph glyph-name="guilsinglright" unicode="&#x203a;" horiz-adv-x="305" 
d="M73 674l159 -250l44 -44l-44 -44l-159 -249l-44 44l114 249l-114 250z" />
    <glyph glyph-name="Euro" unicode="&#x20ac;" horiz-adv-x="536" 
d="M229 352h241l-15 -59h-226v-150l15 -15h98l14 15v49l-16 48h159l-16 -48v-129l-63 -63h-255l-62 63v230h-95l15 59h80v59h-95l15 59h80v228l62 62h255l63 -62v-128l16 -48h-159l16 48v50l-14 15h-98l-15 -15v-150h270l-15 -59h-255v-59z" />
    <glyph glyph-name="trademark" unicode="&#x2122;" horiz-adv-x="415" 
d="M175 715l-18 5h-29l-4 -5v-179l4 -14h-49l5 14v179l-5 5h-31l-16 -5l7 45h128zM301 583h-29l-37 85v-132l5 -14h-49l4 14v208l-4 16h44l52 -120l51 120h44l-4 -16v-208l4 -14h-50l6 14v132z" />
    <glyph glyph-name="minus" unicode="&#x2212;" horiz-adv-x="528" 
d="M455 300l-49 16h-283l-50 -16v159l50 -16h283l49 16v-159z" />
    <glyph glyph-name="notequal" unicode="&#x2260;" horiz-adv-x="470" 
d="M263 316h113l50 16v-157l-50 16h-141l-40 -171h-88l40 171h-54l-49 -16v157l49 -16h82l29 128h-111l-49 -16v159l49 -16h140l40 169h89l-41 -169h55l50 16v-159l-50 16h-84z" />
    <glyph glyph-name="glyph60" 
d="M515 0h-159l11 30l-39 162l-17 18l-112 -52l-18 -18l-25 -110l11 -30h-159l25 51l155 665l-14 44h174l-13 -44l155 -665zM225 304l63 30l13 11l-41 198l-47 -228z" />
    <glyph glyph-name="glyph61" 
d="M317 1075l66 -76l-176 -156l-38 17l88 179zM515 0h-159l11 30l-39 162l-17 18l-112 -52l-18 -18l-25 -110l11 -30h-159l25 51l155 665l-14 44h174l-13 -44l155 -665zM225 304l63 30l13 11l-41 198l-47 -228z" />
    <glyph glyph-name="glyph62" 
d="M116 846l68 142l68 69h15l69 -69l68 -142h-80l-56 124h-17l-56 -124h-79zM490 51l-155 665l13 44h-174l14 -44l-155 -665l-25 -51h159l-11 30l25 110l18 18l112 52l17 -18l39 -162l-11 -30h159zM213 315l47 228l41 -198l-13 -11l-63 -30z" />
    <glyph glyph-name="glyph63" 
d="M209 970l30 -30v-68l-30 -29h-66l-30 29v68l30 30h66zM378 970l29 -30v-68l-29 -29h-69l-29 29v68l29 30h69zM515 0h-159l11 30l-39 162l-17 18l-112 -52l-18 -18l-25 -110l11 -30h-159l25 51l155 665l-14 44h174l-13 -44l155 -665zM225 304l63 30l13 11l-41 198
l-47 -228z" />
    <glyph glyph-name="glyph64" 
d="M279 1039l88 -179l-39 -17l-176 156l67 76zM515 0h-159l11 30l-39 162l-17 18l-112 -52l-18 -18l-25 -110l11 -30h-159l25 51l155 665l-14 44h174l-13 -44l155 -665zM225 304l63 30l13 11l-41 198l-47 -228z" />
    <glyph glyph-name="glyph65" 
d="M367 1010v-106l-55 -56h-104l-56 56v106l56 55h104zM225 1021l-29 -30v-69l29 -30h68l30 30v69l-30 30h-68zM515 0h-159l11 30l-39 162l-17 18l-112 -52l-18 -18l-25 -110l11 -30h-159l25 51l155 665l-14 44h174l-13 -44l155 -665zM225 304l63 30l13 11l-41 198l-47 -228
z" />
    <glyph glyph-name="glyph66" 
d="M108 876l19 59l40 41h69l84 -42l38 18l20 40l32 -32l-19 -58l-41 -42h-69l-82 43l-42 -19zM490 51l-155 665l13 44h-174l14 -44l-155 -665l-25 -51h159l-11 30l25 110l18 18l112 52l17 -18l39 -162l-11 -30h159zM213 315l47 228l41 -198l-13 -11l-63 -30z" />
    <glyph glyph-name="glyph67" horiz-adv-x="482" 
d="M39 760h332l64 -62v-220l-65 -63l65 -64v-288l-64 -63h-332l16 63v636zM181 435l11 -11l101 63l15 15v118l-15 15h-97l-15 -15v-185zM297 344l-101 -61l-15 -15v-125l15 -15h97l15 15v190z" />
    <glyph glyph-name="glyph68" horiz-adv-x="490" 
d="M39 760h157l-16 -62v-260l12 -12l100 61l15 15v196l-15 62h159l-16 -62v-637l16 -61h-159l15 61v270l-11 11l-101 -61l-15 -14v-206l16 -61h-157l16 61v637z" />
    <glyph glyph-name="glyph69" horiz-adv-x="464" 
d="M196 0h-157l16 61v637l-16 62h332l64 -62v-273l-64 -62l-176 -109l-15 -14v-179zM191 405l101 62l15 14v137l-15 14h-97l-15 -14v-203z" />
    <glyph glyph-name="glyph70" horiz-adv-x="474" 
d="M233 0h-122l-64 63v635l64 62h253l63 -62v-635l-63 -63l63 -128h-131zM189 127h98l14 14v477l-14 14h-98l-14 -14v-477z" />
    <glyph glyph-name="glyph71" horiz-adv-x="482" 
d="M299 60l-47 212l-9 11l-48 -29l-15 -14v-179l16 -61h-157l16 61v637l-16 62h332l64 -62v-273l-72 -72l63 -289l20 -64h-158zM307 472v146l-15 14h-97l-15 -14v-212l11 -10l101 62z" />
    <glyph glyph-name="glyph72" horiz-adv-x="483" 
d="M448 520h-159l15 48v50l-15 14h-97l-15 -14v-138l15 -14l176 -59l63 -64v-280l-63 -63h-253l-66 63v128l-14 48h158l-16 -48v-50l15 -14h97l15 14v138l-15 14l-174 59l-66 64v282l66 62h253l63 -62v-130z" />
    <glyph glyph-name="glyph73" horiz-adv-x="483" 
d="M398 1057l-70 -142l-68 -69h-15l-69 69l-65 142h78l55 -125h17l58 125h79zM431 568v130l-63 62h-253l-66 -62v-282l66 -64l174 -59l15 -14v-138l-15 -14h-97l-15 14v50l16 48h-158l14 -48v-128l66 -63h253l63 63v280l-63 64l-176 59l-15 14v138l15 14h97l15 -14v-50
l-15 -48h159z" />
    <glyph glyph-name="glyph134" 
d="M515 0h-159l11 30l-39 162l-17 18l-112 -52l-18 -18l-25 -110l11 -30h-159l25 51l155 665l-14 44h174l-13 -44l155 -665zM225 304l63 30l13 11l-41 198l-47 -228z" />
    <glyph glyph-name="glyph135" 
d="M317 1075l66 -76l-176 -156l-38 17l88 179zM515 0h-159l11 30l-39 162l-17 18l-112 -52l-18 -18l-25 -110l11 -30h-159l25 51l155 665l-14 44h174l-13 -44l155 -665zM225 304l63 30l13 11l-41 198l-47 -228z" />
    <glyph glyph-name="glyph136" 
d="M116 846l68 142l68 69h15l69 -69l68 -142h-80l-56 124h-17l-56 -124h-79zM490 51l-155 665l13 44h-174l14 -44l-155 -665l-25 -51h159l-11 30l25 110l18 18l112 52l17 -18l39 -162l-11 -30h159zM213 315l47 228l41 -198l-13 -11l-63 -30z" />
    <glyph glyph-name="glyph137" 
d="M209 970l30 -30v-68l-30 -29h-66l-30 29v68l30 30h66zM378 970l29 -30v-68l-29 -29h-69l-29 29v68l29 30h69zM515 0h-159l11 30l-39 162l-17 18l-112 -52l-18 -18l-25 -110l11 -30h-159l25 51l155 665l-14 44h174l-13 -44l155 -665zM225 304l63 30l13 11l-41 198
l-47 -228z" />
    <glyph glyph-name="glyph138" 
d="M279 1039l88 -179l-39 -17l-176 156l67 76zM515 0h-159l11 30l-39 162l-17 18l-112 -52l-18 -18l-25 -110l11 -30h-159l25 51l155 665l-14 44h174l-13 -44l155 -665zM225 304l63 30l13 11l-41 198l-47 -228z" />
    <glyph glyph-name="glyph139" 
d="M367 1010v-106l-55 -56h-104l-56 56v106l56 55h104zM225 1021l-29 -30v-69l29 -30h68l30 30v69l-30 30h-68zM515 0h-159l11 30l-39 162l-17 18l-112 -52l-18 -18l-25 -110l11 -30h-159l25 51l155 665l-14 44h174l-13 -44l155 -665zM225 304l63 30l13 11l-41 198l-47 -228
z" />
    <glyph glyph-name="glyph140" 
d="M108 876l19 59l40 41h69l84 -42l38 18l20 40l32 -32l-19 -58l-41 -42h-69l-82 43l-42 -19zM490 51l-155 665l13 44h-174l14 -44l-155 -665l-25 -51h159l-11 30l25 110l18 18l112 52l17 -18l39 -162l-11 -30h159zM213 315l47 228l41 -198l-13 -11l-63 -30z" />
    <glyph glyph-name="glyph141" horiz-adv-x="482" 
d="M39 760h332l64 -62v-220l-65 -63l65 -64v-288l-64 -63h-332l16 63v636zM181 435l11 -11l101 63l15 15v118l-15 15h-97l-15 -15v-185zM297 344l-101 -61l-15 -15v-125l15 -15h97l15 15v190z" />
    <glyph glyph-name="glyph142" horiz-adv-x="490" 
d="M39 760h157l-16 -62v-260l12 -12l100 61l15 15v196l-15 62h159l-16 -62v-637l16 -61h-159l15 61v270l-11 11l-101 -61l-15 -14v-206l16 -61h-157l16 61v637z" />
    <glyph glyph-name="glyph143" horiz-adv-x="464" 
d="M196 0h-157l16 61v637l-16 62h332l64 -62v-273l-64 -62l-176 -109l-15 -14v-179zM191 405l101 62l15 14v137l-15 14h-97l-15 -14v-203z" />
    <glyph glyph-name="glyph144" horiz-adv-x="474" 
d="M233 0h-122l-64 63v635l64 62h253l63 -62v-635l-63 -63l63 -128h-131zM189 127h98l14 14v477l-14 14h-98l-14 -14v-477z" />
    <glyph glyph-name="glyph145" horiz-adv-x="482" 
d="M299 60l-47 212l-9 11l-48 -29l-15 -14v-179l16 -61h-157l16 61v637l-16 62h332l64 -62v-273l-72 -72l63 -289l20 -64h-158zM307 472v146l-15 14h-97l-15 -14v-212l11 -10l101 62z" />
    <glyph glyph-name="glyph146" horiz-adv-x="483" 
d="M448 520h-159l15 48v50l-15 14h-97l-15 -14v-138l15 -14l176 -59l63 -64v-280l-63 -63h-253l-66 63v128l-14 48h158l-16 -48v-50l15 -14h97l15 14v138l-15 14l-174 59l-66 64v282l66 62h253l63 -62v-130z" />
    <glyph glyph-name="glyph147" horiz-adv-x="483" 
d="M398 1057l-70 -142l-68 -69h-15l-69 69l-65 142h78l55 -125h17l58 125h79zM431 568v130l-63 62h-253l-66 -62v-282l66 -64l174 -59l15 -14v-138l-15 -14h-97l-15 14v50l16 48h-158l14 -48v-128l66 -63h253l63 63v280l-63 64l-176 59l-15 14v138l15 14h97l15 -14v-50
l-15 -48h159z" />
    <glyph glyph-name="glyph148" horiz-adv-x="547" 
d="M196 0h-157l16 48v650l62 62h327l64 -62v-256l-64 -64l64 -63v-252l-64 -63h-183l-24 141l54 -14h76l15 14v162l-15 14h-79l-51 -16v159l51 -16h79l15 15v161l-15 15h-172l-15 -15v-572z" />
    <glyph glyph-name="glyph235" horiz-adv-x="1583" 
d="M472 760h206v-760h-206v277h-257v-277h-205v760h205v-278h257v278zM791 760h576v-205h-370v-73h276v-205h-276v-277h-206v760zM1521 739h-32v21h82v-47h-18v26h-14v-23h-18v23zM45 740l68 -68l67 68h-135zM507 740l68 -68l69 68h-137zM826 740l71 -71h359l75 71h-505z
M811 36l73 75v542l-73 73v-690zM1345 725l-67 -67l67 -69v136zM30 36l72 74v542l-72 72v-688zM123 651v-242l72 70v245zM492 479l72 -70v243l-72 72v-245zM658 724l-73 -72v-542l73 -74v688zM1531 581q-20 0 -32.5 13t-12.5 33t12.5 32.5t32.5 12.5q19 0 30.5 -13.5
t11.5 -31.5q0 -17 -11.5 -31.5t-30.5 -14.5zM1531 650q-11 0 -17.5 -6.5t-6.5 -16.5t6.5 -16.5t17.5 -6.5q9 0 15.5 6.5t6.5 16.5t-6.5 16.5t-15.5 6.5zM1331 576l-75 72h-337l72 -72h340zM976 478v83l-71 71v-223zM1525 466q-8 0 -15.5 1.5t-13.5 7.5q-5 5 -7 12.5t-2 15.5
q0 6 2 13.5t7 13.5q6 5 13.5 6.5t15.5 1.5h46v-21h-43q-8 0 -15.5 -2t-7.5 -12q0 -11 7.5 -13t15.5 -2h43v-22h-46zM478 462h-268l-73 -72h413zM991 462l-73 -72h244l77 72h-248zM1253 447l-68 -67l68 -68v135zM1489 420h82v-21l-51 -39v-1h51v-21h-82v21l50 40h-50v21z
M478 298l72 72h-413l73 -72h268zM1239 298l-76 72h-245l73 -72h248zM195 281l-72 71v-241l72 -74v244zM492 36l72 74v242l-72 -71v-245zM976 282l-71 70v-241l71 -73v244zM1489 290h82v-30q0 -17 -12 -29t-29 -12t-29 12t-12 29v30zM1507 264q0 -10 5.5 -16.5t17.5 -6.5
q23 0 23 23v6h-46v-6zM1489 175h82v-31q0 -12 -6 -20.5t-19 -8.5q-20 0 -24 18l-33 -26v27l31 20v1h-31v20zM1534 153q0 -6 1.5 -10.5t8.5 -4.5q8 0 9.5 4.5t1.5 10.5v2h-21v-2zM180 21l-67 67l-68 -67h135zM644 21l-69 67l-68 -67h137zM962 21l-68 67l-68 -67h136zM1528 52
l43 30v-26l-23 -15l23 -15v-26l-43 30h-39v22h39z" />
    </font>
</defs>
</svg>
